تبلیغات
خرید و دانلود فیلم و سریال ترکیه ای - FatmaGül’ün Suçu Ne ? Bölüm 3 (1,07 Gb 256 Kbps 720*544) [Rip By ASiKaR]
خرید و دانلود فیلم و سریال ترکیه ای

لینکدونی

آرشیو موضوعی

آرشیو

← آمار وبلاگ

  • کل بازدید :
  • بازدید امروز :
  • بازدید دیروز :
  • بازدید این ماه :
  • بازدید ماه قبل :
  • تعداد نویسندگان :
  • تعداد کل پست ها :
  • آخرین بازدید :
  • آخرین بروز رسانی :

FatmaGül’ün Suçu Ne ? Bölüm 3 (1,07 Gb 256 Kbps 720*544) [Rip By ASiKaR]

Kod:
General
Complete name : Fatma.Gulun.Sucu.Ne.3.Rip.By.ASiKaR.avi
Format : AVI
Format/Info : Audio Video Interleave
File size : 1.07 GiB
Duration : 1h 24mn
Overall bit rate : 1 814 Kbps
Writing application : VirtualDubMod 1.5.4.1 (build 2178/release)
Writing library : VirtualDubMod build 2178/release

Video
ID : 0
Format : MPEG-4 Visual
Format profile : Advanced Simple@L5
Format settings, BVOP : Yes
Format settings, QPel : No
Format settings, GMC : No warppoints
Format settings, Matrix : Custom
Codec ID : XVID
Codec ID/Hint : XviD
Duration : 1h 24mn
Bit rate : 1 551 Kbps
Width : 720 pixels
Height : 544 pixels
Display aspect ratio : 4:3
Frame rate : 25.000 fps
Color space : YUV
Chroma subsampling : 4:2:0
Bit depth : 8 bits
Scan type : Progressive
Bits/(Pixel*Frame) : 0.158
Stream size : 940 MiB (85%)
Writing library : XviD 1.2.1 (UTC 2008-12-04)

Audio
ID : 1
Format : MPEG Audio
Format version : Version 1
Format profile : Layer 2
Codec ID : 50
Duration : 1h 24mn
Bit rate mode : Constant
Bit rate : 256 Kbps
Channel(s) : 2 channels
Sampling rate : 48.0 KHz
Stream size : 155 MiB (14%)
Alignment : Aligned on interleaves
Interleave, duration : 80 ms (2.00 video frames)
Interleave, preload duration : 504 ms

http://hotfile.com/dl/72975159/1ea7b...part1.rar.html
http://hotfile.com/dl/72987536/50b9d...part2.rar.html
http://hotfile.com/dl/72997704/484f6...part3.rar.html
http://hotfile.com/dl/73008150/01d27...part4.rar.html
http://hotfile.com/dl/73028009/fc74a...part5.rar.html
http://hotfile.com/dl/73035896/bf508...part6.rar.html

foot issues
شنبه 18 شهریور 1396 05:20 ق.ظ
Do you mind if I quote a few of your posts as long as
I provide credit and sources back to your weblog?
My blog is in the exact same niche as yours and
my visitors would definitely benefit from some of the
information you provide here. Please let me know if this alright with you.
Thanks a lot!
Foot Problems
جمعه 13 مرداد 1396 10:10 ب.ظ
I like the valuable info you supply in your articles.

I'll bookmark your blog and test again here frequently.
I am rather sure I'll learn many new stuff right here!
Best of luck for the following!
http://zippydairy1077.snack.ws
جمعه 13 مرداد 1396 07:20 ب.ظ
Hello this is somewhat of off topic but I was wanting to know if blogs use WYSIWYG editors or if you have
to manually code with HTML. I'm starting a blog soon but
have no coding experience so I wanted to get advice from someone with experience.
Any help would be enormously appreciated!
malikahaskins.hatenablog.com
یکشنبه 8 مرداد 1396 12:44 ق.ظ
I like what you guys are up too. This type of clever work and coverage!
Keep up the good works guys I've added you guys to blogroll.
 
لبخندناراحتچشمک
نیشخندبغلسوال
قلبخجالتزبان
ماچتعجبعصبانی
عینکشیطانگریه
خندهقهقههخداحافظ
سبزقهرهورا
دستگلتفکر

درباره وبلاگ

مدیر وبلاگ : سی دی خونه سی دی خونه

آخرین پست ها

جستجو

نویسندگان